#TITLE:Stratosphere;
#SUBTITLE:~Magna Trick original~;
#ARTIST:Stratovarius;
#TITLETRANSLIT:;
#SUBTITLETRANSLIT:;
#ARTISTTRANSLIT:;
#CREDIT:Magna Trick;
#BANNER:Stratosphere-BN.png;
#BACKGROUND:Stratosphere-BG.png;
#LYRICSPATH:;
#CDTITLE:Magna Trick title!.png;
#MUSIC:Stratosphere.mp3;
#OFFSET:-0.740;
#SAMPLESTART:35.936;
#SAMPLELENGTH:11.980;
#SELECTABLE:YES;
#BPMS:0.000=163.160,225.250=157.000,225.500=150.000,227.000=143.000,228.500=138.000,229.000=129.000,229.500=126.000,231.000=123.000,231.500=119.000,232.500=115.000,233.000=105.001,233.500=87.001,234.500=78.001,235.000=68.001,235.500=50.001,235.667=42.001,236.500=43.001,237.000=38.001,237.500=25.001,238.000=40.001,238.500=65.001,239.000=76.001,239.500=100.001,240.000=120.000,240.500=110.001,241.000=100.001,241.500=90.001,242.000=81.581,247.000=110.061,462.500=163.161,494.500=108.761,512.500=163.161,561.000=157.001,562.000=152.001,567.000=147.001,568.000=93.002,569.000=100.001,570.000=118.001,571.000=115.001,572.000=100.002,574.000=95.002,575.000=88.002,576.000=83.002,579.000=75.002,580.000=70.002,581.000=75.002,584.000=70.002,585.750=65.002,586.000=62.502,587.500=58.002,588.750=53.502,589.000=40.002,589.250=39.002,589.500=52.002,590.000=60.002,590.500=75.002,591.000=100.002,591.500=120.002,592.000=145.002,592.500=160.002,593.000=163.162,602.000=110.062,606.500=125.002,607.500=150.002,608.500=163.162;
#STOPS:175.000=0.020
,393.000=0.040
,494.500=0.040
,602.000=0.040
;
#BGCHANGES:;
// cache tags:
#FIRSTBEAT:0.000;
#LASTBEAT:622.500;
#SONGFILENAME:Songs/Chilean Keyboard Megapack 3/(Magna Trick) Stratosphere -full-/Stratosphere.sm;
#HASMUSIC:1;
#HASBANNER:1;
#MUSICLENGTH:292.003;
// end cache tags

//---------------dance-single - ----------------
#NOTES:
     dance-single:
     :
     Challenge:
     12:
     0.942,1.000,0.757,0.360,1.000,1600.000,221.000,105.000,0.000,1.000:
0001
0001
0001
1000
0001
0001
0001
1000
0001
0001
0001
1000
0001
0001
0001
1000
,
0010
0010
0010
1000
0010
0010
0010
1000
0010
0010
0010
1000
0010
0010
0010
1000
,
0100
0100
0100
1000
0100
0100
0100
1000
0100
0100
0100
1000
0100
0100
0100
1000
,
0001
0001
0001
1000
0001
0001
0001
1000
0001
0001
0001
1000
0001
0001
0001
1000
,
0110
0010
0010
1000
0010
0010
0010
1000
0010
0010
0010
1000
0010
0010
0010
1000
,
1000
0100
0100
0010
0010
0001
0001
0100
0010
1000
0100
0100
0010
0001
0010
0100
,
1001
1000
1000
0100
1000
1000
1000
0100
1000
1000
1000
0100
1000
1000
1000
0100
,
0100
0010
0010
0001
0001
0100
0100
0010
1000
0100
0010
0010
0001
0010
0100
1000
,
1001
0001
0001
0010
0001
0001
0001
0010
0001
0001
0001
0010
0001
0001
0001
0010
,
0010
0100
0100
1000
1000
0010
0010
0100
0001
0010
0100
0100
1000
0100
0010
0001
,
0110
0100
0100
0001
0100
0100
0100
0001
0100
0100
0100
0001
0100
0100
0100
0001
,
0001
0010
0010
0100
0100
1000
1000
0010
1001
0110
1001
0110
1001
0110
1001
0110
,
1001
0010
0100
0001
1010
0100
0010
0001
1010
0100
1000
0001
0110
0001
1000
0100
,
0010
0001
0100
0010
1000
0001
0010
0100
1000
0010
0100
0001
0010
0100
1000
0010
,
1001
0100
0010
0001
1010
0100
1000
0010
1100
0001
1000
0010
0101
1000
0100
0010
,
0001
0010
0100
1000
0010
0100
0001
1000
0100
0010
0001
0100
0010
1000
0001
0010
,
0101
1000
0001
0100
0011
1000
0001
0010
1100
0010
0001
1000
0011
0100
0001
1000
,
0100
0010
0001
1000
0010
0100
0001
1000
0100
0010
0001
1000
0010
0100
0001
0010
,
1100
0010
0001
1000
0011
0100
0001
1000
0101
0010
0001
0010
1001
0100
0010
0100
,
1001
0100
0011
1000
0011
1000
0100
1010
0101
1000
0110
1001
0110
1001
0100
0010
,
0001
1000
0010
1000
0100
1000
0001
1000
0010
1000
0100
1000
0001
1000
0110
0000
,
1000
0001
0100
0001
0010
0001
1000
0001
0100
0001
0010
0001
1000
0001
0110
0000
,
0010
0100
1000
0100
0001
0100
0010
0100
1000
0100
0001
0100
0010
0100
1001
0000
,
0100
0010
0001
0010
1000
0010
0100
0010
0001
0010
1000
0010
0100
0010
1001
0000
,
1000
0001
0100
0001
0010
0001
1000
0001
0100
0001
0010
0001
1000
0001
0110
0000
,
0001
1000
0010
1000
0100
1000
0001
1000
0010
1000
0100
1000
0001
1000
0110
0000
,
0001
1000
0001
0010
0001
1000
0001
0100
0001
0100
0001
0010
0001
1000
0001
0100
,
0001
0010
0001
0100
0001
1000
0001
1000
0001
0100
0010
1000
0002
0000
0000
0000
,
1003
0001
0100
0001
0010
0001
1000
0001
0100
0001
0010
0001
1000
0001
0110
0000
,
0001
1000
0010
1000
0100
1000
0001
1000
0010
1000
0100
1000
0001
1000
0110
0000
,
0100
0010
0001
0010
1000
0010
0100
0010
0001
0010
1000
0010
0100
0010
1001
0000
,
0010
0100
1000
0100
0001
0100
0010
0100
1000
0100
0001
0100
0010
0100
1001
0000
,
0001
1000
0010
1000
0100
1000
0001
1000
0010
1000
0100
1000
0001
1000
0110
0000
,
1000
0001
0100
0001
0010
0001
1000
0001
0100
0001
0010
0001
1000
0001
0110
0000
,
1000
0001
1000
0100
1000
0001
1000
0010
1000
0010
1000
0100
1000
0001
1000
0010
,
1000
0100
1000
0010
1000
0001
1000
0001
1000
0010
0100
0010
1001
0110
1001
0110
,
1001
0100
0010
0001
1100
0010
0100
1000
0101
1000
0010
1000
0011
0100
0010
0001
,
0110
1000
0001
0010
1100
0010
0100
0001
1010
0100
0001
0010
0101
1000
0010
0100
,
0011
1000
0100
0010
1001
0100
0010
0001
1100
0010
0100
1000
0011
0100
0010
0001
,
0110
0001
1000
0010
1001
0100
0010
0001
0110
0001
0010
1000
0101
1000
0010
0100
,
1001
0010
0100
0001
1010
0001
0010
0100
1001
0010
0100
1000
0011
1000
0010
0001
,
0110
0001
1000
0010
1100
0001
0100
0010
1001
0100
0010
1000
0101
0010
1000
0001
,
0110
0001
0010
0100
1010
0001
0100
0010
1001
0010
0100
1000
0011
1000
0100
0001
,
0110
0000
0001
0000
0010
0000
0100
0000
1001
0000
0010
0000
0100
0000
1000
0000
0120
0000
0000
0000
0000
0000
0030
1000
0001
0000
0000
0000
0000
0000
0000
0000
,
0001
0010
0100
1000
0100
0010
0001
0010
0100
1000
0100
0010
0001
0010
0100
1000
,
0010
0100
0001
1000
0100
0010
0001
0100
0010
1000
0001
0010
0100
1000
0001
0100
,
0010
1000
0010
1000
0100
0010
0100
0010
0001
1000
0001
1000
0010
0100
0010
0100
,
0001
1000
0001
1000
0010
0100
0010
0100
0001
1000
0010
0100
0001
1000
0100
0010
,
1000
0100
0010
0001
0010
0100
1000
0100
0010
0001
0010
0100
1000
0100
0010
0001
,
0100
0010
1000
0001
0010
0100
1000
0010
0100
0001
1000
0100
0010
0001
1000
0010
,
0100
0001
0100
0001
0010
0100
0010
0100
1000
0001
1000
0001
0100
0010
0100
0010
,
1000
0001
1000
0001
0100
0010
0100
0010
2000
0000
0001
3000
0001
1000
0001
1000
,
1001
0010
0100
0001
1000
0100
0010
0001
1000
0101
1000
0010
,
0100
0001
1000
0100
1000
0001
0110
0001
0010
0100
0010
0001
,
1000
0010
0100
0011
1000
0100
1000
0001
0010
1000
0010
0001
,
1002
0000
2003
0000
,
3200
0000
0320
0000
,
0032
0000
0203
0000
,
0320
0000
0000
0000
0000
0000
0000
0000
2030
0000
0000
0000
0000
0000
0000
3000
,
2002
0000
0000
0000
,
0000
0000
0000
0000
,
0000
0000
0000
0000
,
0000
0000
0000
0000
3003
0000
0000
0000
0001
1000
0001
0000
0010
0000
0000
0000
0100
0000
0000
0000
0000
0000
1000
0000
0100
0000
0000
0000
1000
0000
0000
0000
,
0000
0100
0010
0000
0001
0000
0100
0000
0010
0000
1020
0000
0000
0000
0000
0000
,
0000
0030
2001
0000
0000
0000
0000
0000
3100
0000
0020
0000
0000
0000
0032
0000
,
0000
0003
2001
0000
0000
0000
0000
0000
3000
0000
0202
0000
0000
0000
0000
0000
,
0303
0220
0000
0330
0010
2000
0000
3002
,
0000
0000
1003
0000
0000
0100
0010
0000
0001
0000
2000
0000
0000
0000
0010
0000
,
3000
1001
0000
0002
0010
0010
0000
1000
,
0003
0000
0110
0000
0000
1000
0000
0000
0100
0000
1000
0000
0000
0000
0001
0000
,
0020
0231
0000
0000
0001
0301
0000
1000
,
0000
1100
0000
0020
0000
0032
0000
0103
,
0000
1001
0000
1000
0100
2000
0000
3100
,
0000
0011
0000
0002
0000
0203
0000
0310
,
0000
1001
0000
0001
1000
0100
0000
0010
,
0000
0011
0010
0010
0001
0012
0000
0000
,
0000
0003
1100
0000
0000
0000
0100
0000
1000
0000
0002
0000
0000
0000
0103
0000
,
0000
2010
0000
3020
1000
0230
0000
1300
,
0001
1001
0000
0001
0010
0110
0000
0100
,
0000
1001
0000
0001
0100
0220
0000
0330
,
0000
2001
0000
0000
3001
0010
0000
0100
,
0000
1001
1000
0010
0100
0002
0000
0000
,
1003
0000
1001
0000
0000
0010
0100
0000
0001
0000
0001
0000
0000
0010
0100
0000
,
0001
0001
0010
0100
1000
1002
0000
0000
,
0003
1001
0000
0001
0100
0020
0000
1030
,
0000
0000
1001
0000
0000
1100
0000
0000
0110
0000
0011
0000
0000
0000
0001
0000
,
1001
1010
0000
0010
0110
0001
1000
1100
,
0000
0011
0000
0001
1000
1001
0000
1000
,
0000
0110
0000
0010
0100
0002
0000
0013
,
0000
0110
0000
2000
0000
3020
0000
0130
,
0000
0000
1001
0000
0000
0000
0001
0000
0010
0000
0100
0000
0000
0100
0010
0000
,
0000
0000
0000
0000
0000
0001
0010
0000
0100
0000
2000
0000
0000
0000
0000
0000
,
0000
3000
0101
0000
0000
0000
0001
0000
1000
0000
1000
0000
0000
0000
0100
0000
,
0000
0011
0000
0001
0000
0200
0000
0000
,
0000
0310
0000
2000
0100
3200
0000
0310
,
0000
0001
0000
0010
0100
2000
0000
3001
,
0000
0101
0000
0001
0100
0020
0000
1030
,
0000
0000
0000
0000
1001
0000
0000
0000
0010
0000
0000
0000
0001
0000
0000
0000
0010
0000
0000
0000
0200
0000
0000
0000
0000
0000
0000
0000
1300
0001
0000
0000
,
1000
0000
0000
0000
0000
0000
0001
0000
0000
0000
0000
0000
0000
0000
0000
0000
0000
0000
0000
0000
0000
0000
0000
0000
0000
0000
0000
0000
0000
0000
0000
0000
0000
0000
0000
0000
0000
0000
0000
0000
0000
0000
0000
0000
0010
0000
0000
0000
0001
0000
0000
0000
0000
0000
0000
0000
0000
0000
0000
0000
0000
0000
0000
0000
0000
0000
0000
0000
0000
0000
0000
0000
0000
0000
0000
0000
0000
0000
0000
0000
0000
0000
0000
0000
0000
0000
0000
0000
0000
0000
0000
0000
0000
0000
0000
0000
0001
0000
0000
0000
0000
0000
1000
0000
0000
0000
0000
0000
0000
0000
0000
0000
0000
0000
0000
0000
0000
0000
0000
0000
0001
0000
0000
0000
0000
0000
1000
0000
0000
0000
0000
0000
0000
0000
0000
0000
0000
0000
0000
0000
0000
0000
0000
0000
0000
0000
0000
0000
0000
0000
0000
0000
0000
0000
0000
0000
1000
0000
0000
0000
0000
0000
0000
0000
0000
0000
0000
0000
0100
0000
0000
0000
0000
0000
0000
0000
0000
0000
0000
0000
0000
0000
0000
0000
0000
0000
0000
0000
0000
0000
0000
0000
,
0010
0001
1000
0010
0100
0101
1000
0100
,
1000
0101
0001
0010
0100
0110
0010
0001
,
0100
0110
0010
1000
0001
1001
0001
0010
,
0100
0011
0001
0010
0100
1100
1000
0010
,
0100
1001
0100
0001
0010
1100
1000
0001
,
0100
0101
0001
0010
0100
0110
0010
0001
,
0100
0010
1000
0001
1000
1001
0001
0010
,
0100
0011
0001
0100
0010
0110
0010
1000
,
0001
1001
1000
0110
0011
0120
0000
2030
,
0000
3002
0000
0203
0000
0310
0001
1000
,
0100
0010
0001
1000
0010
0200
0000
0302
,
0000
2003
0000
3200
0000
0310
0001
0010
,
0100
1000
0010
0100
1000
0002
0000
0023
,
0000
2030
0000
3200
0000
0310
0001
0010
,
0100
1000
0010
0100
0001
2000
0000
3200
,
0000
0320
0000
0032
0000
2003
0000
3001
,
0000
0000
0001
0000
1000
0000
0001
0000
0001
0000
1001
0001
0001
1000
0001
0001
,
0001
1000
0001
0001
0001
1000
0001
0001
0001
1000
0010
0100
0001
1000
0100
0010
,
0001
0010
0100
1000
0010
0100
0001
1000
0100
0010
0101
0100
0100
1000
0100
0100
,
0100
1000
0100
0100
0100
1000
0100
0100
0100
1000
0001
0010
0100
1000
0010
0100
,
0001
0010
0100
1000
0010
1000
0100
0010
0001
1000
0110
0010
0010
1000
0010
0010
,
0010
1000
0010
0010
0010
1000
0010
0010
0010
0100
0001
1000
0100
0010
0001
0010
,
0100
1000
0010
0100
0001
1000
0100
0010
0001
0010
1100
1000
1000
0001
1000
1000
,
1000
0001
1000
1000
1000
0001
1000
1000
1000
0010
1001
0110
1001
0110
1001
0110
,
1001
0000
0000
0110
0000
0000
1100
0000
0000
0011
0000
0000
1100
0000
0000
0011
0000
0000
1100
0000
0000
0011
0000
0000
1100
0000
0000
0011
0000
0000
1100
0000
0000
0000
0000
0000
0000
0000
0001
0000
0000
0000
0000
0000
0000
0000
1100
0000
,
0000
0000
0000
0110
0000
1010
0000
0110
0000
0001
0000
0110
0000
1000
0000
0011
0000
0100
0000
0010
0000
0001
0000
1001
,
0000
0000
0000
0010
0000
0000
0000
1001
0000
0000
0000
1000
0000
0110
0000
0101
0000
0110
0000
0010
0000
0100
0000
1001
,
0000
0010
0000
1100
0000
0001
0000
1100
0000
0000
0000
0110
0000
0000
0000
0011
0000
0000
0000
1001
0000
0000
0000
0011
,
0000
1000
0000
0100
0000
0010
0000
0001
0000
0010
0000
1000
0000
0010
0000
1001
0000
0000
0000
0100
0000
0000
0000
1001
,
0000
0000
0110
0000
0000
0000
0011
1100
0011
1100
0011
1100
0011
1100
0011
1100
,
0011
1100
0011
1100
0011
1100
0011
0001
0001
1000
0001
0001
0001
1000
0001
0001
,
0001
1000
0001
0001
0001
0010
0100
1000
0010
0100
0001
1000
0100
1000
0010
0100
,
0001
0010
0001
1000
0010
0100
0011
0010
0010
1000
0010
0010
0010
1000
0010
0010
,
0010
1000
0010
0010
0010
0100
0001
1000
0010
0100
0010
1000
0100
0010
0001
0010
,
0001
0100
0010
0100
0010
1000
0110
0100
0100
1000
0100
0100
0100
1000
0100
0100
,
0100
1000
0100
0100
0100
1000
0010
0100
0001
1000
0100
0010
0001
0010
0100
1000
,
0010
0100
0010
0100
0001
0010
1001
0001
0001
1000
0010
0010
0010
1000
0100
0100
,
0100
1000
0001
0001
0001
1000
0010
0100
0001
1000
0100
0010
0001
0010
0100
1000
,
0010
0100
0001
0001
0001
0001
0001
0010
0100
1000
0001
0100
0010
1000
0100
0100
,
0100
0100
0100
0010
0001
1000
0010
0100
0001
1000
0100
0010
0001
0010
0100
1000
,
0010
0100
1001
0110
1001
0110
1002
0000
0000
0000
2003
0000
0000
0000
3200
0000
,
0000
0320
0000
0032
0000
2003
0000
3020
,
0000
0230
0000
0302
0000
2003
0000
3200
,
0000
0320
0000
0032
0000
2003
0000
3020
,
0000
0230
0000
0302
0000
2003
0000
3200
,
0000
0320
0000
0032
0000
2003
0000
3020
,
0000
0230
0000
0302
0000
2003
0000
3200
,
0000
0000
0000
0000
0320
0000
0000
0000
0000
0000
0000
0000
0032
0000
0000
0000
0000
0000
0000
0000
1003
0100
0000
0000
0100
0000
0000
0000
0010
0000
0000
0000
,
0001
1000
2001
0002
0000
0000
0000
0000
,
0000
0000
0000
0000
,
0000
0000
0000
0000
,
0000
0000
0000
0000
0000
0000
0000
0000
0000
0000
0000
0000
0000
0000
0000
0000
0000
0000
0000
0000
0000
0000
0000
0000
0000
0000
0000
0000
0000
0000
0000
0000
0000
0000
0000
0000
0000
0000
0000
0000
0000
0000
0000
0000
0000
0000
0000
0000
0000
0000
0000
0000
0000
0000
0000
0000
0000
0000
0000
0000
0000
0000
0000
0000
0000
0000
0000
0000
0000
0000
0000
0000
0000
0000
0000
0000
0000
0000
0000
0000
0000
0000
0000
0000
0000
0000
0000
0000
0000
0000
0000
0000
0000
0000
0000
0000
3003
0000
0000
0000
0000
0000
0000
0000
0000
0000
0000
0000
0000
0000
0000
0000
0000
0000
0000
0000
0000
0000
0000
0000
0001
0000
0000
0000
0000
0000
1000
0000
0000
0000
0000
0000
0001
0000
0000
0000
0000
0000
0000
0000
0000
0000
0000
0000
0100
0000
0000
0000
0000
0000
0000
0000
0000
0000
0000
0000
0000
0000
0000
0000
0001
0000
0000
0000
0000
0000
0000
0000
0000
0000
0000
0000
0000
0000
0000
0000
0100
0000
0000
0000
0000
0000
0000
0000
0000
0000
0000
0000
0000
0000
0000
0000
,
0010
0000
0000
0000
0010
0000
0000
0000
0100
0010
0100
0000
0001
0000
0000
0000
1000
0000
0000
0000
1002
0000
0000
0000
0000
0000
0000
0000
0000
0000
0000
0000
,
0000
0000
0000
0000
0000
0000
0000
1000
,
0000
0000
0000
1000
0000
0000
0000
0000
0000
1000
0000
0000
0000
0000
0000
1003
0000
0000
0000
0000
0000
1000
0100
0010
,
0001
0100
0010
1000
0001
1000
0001
0100
0010
0100
0010
1000
0001
0010
0100
1000
0001
0010
0100
1000
0010
0100
0001
1000
,
0100
0010
0001
0110
1000
0001
0010
0100
1000
0220
0000
0000
0000
0000
0000
0330
0000
0000
0000
0000
0000
0000
0000
0000
;
